1992 - King Arthur and the Knights of Justice


    Seeders : 0      Leechers : 0

Hash :583FAE070AD27B8E8125E35CBB00EB39D5AD4806
Added :1 Year+ in TV shows
Size :3.35 GB
Stream :Watch FREE Full Movies @ Movie4u


1992 - King Arthur and the Knights of Justice
Download your torrents safely! And Anonymously!









Note :

Please Update (Trackers Info) Before Start Torrents Downloading to See Updated Seeders And Leechers for Batter Download Speed.

Trackers List

Tracker NameLast CheckStatusSeedersLeechers



Torrent File Content (26 files)


1992 - King Arthur and the Knights of Justice
     King Arthur And The Knights Of Justice - S01 EP01 - Opening Kickoff.mkv -
133.95 MB

     King Arthur And The Knights Of Justice - S01 EP02 - A Knight's Quest.mkv -
133.91 MB

     King Arthur And The Knights Of Justice - S01 EP03 - The Unbeliever.mkv -
136.95 MB

     King Arthur And The Knights Of Justice - S01 EP04 - Even Knights Have To Eat.mkv -
134.01 MB

     King Arthur And The Knights Of Justice - S01 EP05 - Assault On Castle Morgana.mkv -
135.98 MB

     King Arthur And The Knights Of Justice - S01 EP06 - Quest for Courage.mkv -
137.04 MB

     King Arthur And The Knights Of Justice - S01 EP07 - The Warlord Knight.mkv -
134.29 MB

     King Arthur And The Knights Of Justice - S01 EP08 - The Challenge.mkv -
129.06 MB

     King Arthur And The Knights Of Justice - S01 EP09 - To Save a Squire.mkv -
137.05 MB

     King Arthur And The Knights Of Justice - S01 EP10 - The Surrender.mkv -
135.95 MB

     King Arthur And The Knights Of Justice - S01 EP11 - Darren's Key.mkv -
136.56 MB

     King Arthur And The Knights Of Justice - S01 EP12 - Viper's Phantom.mkv -
135.99 MB

     King Arthur And The Knights Of Justice - S01 EP13 - The Way Back.mkv -
134.3 MB

     King Arthur And The Knights Of Justice - S02 EP01 - A Matter Of Honor.mkv -
129.01 MB

     King Arthur And The Knights Of Justice - S02 EP02 - What The Key Unlocked.mkv -
128.83 MB

     King Arthur And The Knights Of Justice - S02 EP03 - Tyronne And Everett Alone.mkv -
128.94 MB

     King Arthur And The Knights Of Justice - S02 EP04 - The Dark Side.mkv -
128.86 MB

     King Arthur And The Knights Of Justice - S02 EP05 - The Quitter.mkv -
129.13 MB

     King Arthur And The Knights Of Justice - S02 EP06 - Camelot Park.mkv -
129.14 MB

     King Arthur And The Knights Of Justice - S02 EP07 - The High Ground.mkv -
129.02 MB

     King Arthur And The Knights Of Justice - S02 EP08 - The Island.mkv -
129.13 MB

     King Arthur And The Knights Of Justice - S02 EP09 - Quest For The Book.mkv -
129.1 MB

     King Arthur And The Knights Of Justice - S02 EP10 - Enter Morgana.mkv -
129.12 MB

     King Arthur And The Knights Of Justice - S02 EP11 - The Cure.mkv -
129.13 MB

     King Arthur And The Knights Of Justice - S02 EP12 - Winter Campaign.mkv -
129.09 MB

     King Arthur And The Knights Of Justice - S02 EP13 - Tone's Triumph.mkv -
129.1 MB



Description



 							All 26 Episodes are Webrips 420p

The show's premise had King Arthur and the Knights of the Round Table trapped in the Cave of Glass by the evil enchantress Queen Morgana. The wizard Merlin, unable to free King Arthur and the Knights himself, searches the timeline for replacement Knights. Merlin finds the quarterback of the New York Knights football team, Arthur King, as a suitable replacement. Merlin transports Arthur King and his teammates to Camelot after one of their football games and appoints Arthur King as their leader, with his teammates as the new Knights of the Round Table, and assigns them the task of freeing the true King and Knights. To do so, they must find the 12 Keys of Truth, one for each knight that only the knight in question can initially touch. Once all the keys are found, the real knights will be free and the team will return home. In the meantime, they pledge "....fairness to all, to protect the weak and vanquish the evil". The Knights are armed with special armor and are able to summon their respective creatures at any time when in battle armor. These animals, such as King Arthur's dragon, are emblazoned on their shields.
The series had a progressive story with both sides making progress towards their goals. Continuity was also established in the episodes which would be brought up in later episodes, along with some repeat minor characters, character relationships, and previously overcome weaknesses of the Knights. Despite the continual movement towards a resolution, the series is incomplete and ended abruptly during the second season.

Enjoy the Show


Video
ID : 1
Format : AVC
Format/Info : Advanced Video Codec
Format profile : [email protected]
Format settings, CABAC : Yes
Format settings, ReFrames : 4 frames
Codec ID : V_MPEG4/ISO/AVC
Duration : 22 min
Bit rate : 700 kb/s
Width : 640 pixels
Height : 480 pixels
Display aspect ratio : 4:3
Frame rate mode : Constant
Frame rate : 29.970 (29970/1000) FPS
Color space : YUV
Chroma subsampling : 4:2:0
Bit depth : 8 bits
Scan type : Progressive
Bits/(Pixel*Frame) : 0.076
Stream size : 113 MiB (84%)
Writing library : x264 core 146 r2538 121396c
Default : Yes
Forced : No

Audio
ID : 2
Format : AAC
Format/Info : Advanced Audio Codec
Format profile : LC
Codec ID : A_AAC
Duration : 22 min
Bit rate : 128 kb/s
Channel(s) : 2 channels
Channel positions : Front: L R
Sampling rate : 44.1 kHz
Frame rate : 43.066 FPS (1024 spf)
Compression mode : Lossy
Delay relative to video : -23 ms
Stream size : 20.7 MiB (15%)
Default : Yes
Forced : No

Related torrents

Torrent NameAddedSizeSeedLeechHealth
1 Year+ - in Other500.05 MB00
1 Year+ - in TV shows5.78 GB00
8 months ago - in Other1.36 GB00
1 Year+ - in Music7.96 GB11
1 Year+ - in Other4.39 MB113

Note :

Feel free to post any comments about this torrent, including links to Subtitle, samples, screenshots, or any other relevant information. Watch 1992 - King Arthur and the Knights of Justice Free Movies Online, Like 123Movies, Fmovies, Putlockers, Popcorntime, Netflix or Direct Download 1992 - King Arthur and the Knights of Justice via Magnet Link.

Comments (0 Comments)




Please login or create a FREE account to post comments

Latest Searches


X
Attention! Use a VPN when Accessing Free Content !
Your IP address is - Country:
Your Internet provider Tracks your Activity! Hide your IP ADDRESS with a VPN!
Bonus: Get Lag-Free Streams & No popups with any VPN Purchased !

Download Here