Secret City - S01E06 - The Light On The Hill mkv


    Seeders : 6      Leechers : 39

Hash :81E686A5B5A17949BFAC80B935C213A13594C9DB
Added :1 Year+ in TV shows
Size :1.17 GB
Stream :Watch FREE Full Movies @ Movie4u


Secret City - S01E06 - The Light On The Hill mkv
Download your torrents safely! And Anonymously!









Note :

Please Update (Trackers Info) Before Start Torrents Downloading to See Updated Seeders And Leechers for Batter Download Speed.

Trackers List

Tracker NameLast CheckStatusSeedersLeechers
udp://tracker.opentrackr.org:1337/announce1 Year+success639
udp://tracker.coppersurfer.tk:6969/announce1 Year+success510
udp://9.rarbg.me:2710/announce1 Year+success45
udp://9.rarbg.to:2710/announce1 Year+success45
udp://tracker.leechers-paradise.org:6969/announce1 Year+success37
udp://eddie4.nl:6969/announce1 Year+success37
udp://tracker.pomf.se:80/announce1 Year+failed00
udp://tracker.internetwarriors.net:1337/announce1 Year+success00
udp://torrent.gresille.org:80/announce1 Year+success00
udp://p4p.arenabg.com:1337/announce1 Year+success09
udp://p4p.arenabg.ch:1337/announce1 Year+success09
udp://tracker.blackunicorn.xyz:6969/announce1 Year+failed00
udp://tracker4.piratux.com:6969/announce1 Year+failed00
udp://glotorrents.pw:6969/announce1 Year+failed00
udp://tracker.trackerfix.com:80/announce1 Year+success00
http://tracker.publicbt.com/announce1 Year+failed00
http://explodie.org:6969/announce1 Year+success00
http://bigfoot1942.sektori.org:6969/announce1 Year+success00
http://tracker.tfile.me/announce1 Year+success00
udp://tracker.openbittorrent.com:80/announce1 Year+failed00
udp://tracker.publicbt.com:80/announce1 Year+failed00



Torrent File Content (1 file)


     Secret City - S01E06 - The Light On The Hill.mkv -
1.17 GB



Description



 							Secret City - S01E06 - The Light On The
Hill

image

Harriet's story on missing Chinese dissidents may have embarrassed Beijing into returning Sabine Hobbs to Canberra, but the connections to Australian intelligence and the murder remain hidden.

Media InfoComplete name : Secret City - S01E06 - The Light On The Hill.mkv
Format : Matroska
Format version : Version 4 / Version 2
File size : 1.17 GiB
Duration : 51mn 49s
Overall bit rate mode : Variable
Overall bit rate : 3 238 Kbps
Encoded date : UTC 2016-07-04 00:16:06
Writing application : mkvmerge v9.2.0 ('Photograph') 64bit
Writing library : libebml v1.3.3 + libmatroska v1.4.4

Video
ID : 2
Format : AVC
Format/Info : Advanced Video Codec
Format profile : [email protected]
Format settings, CABAC : Yes
Format settings, ReFrames : 3 frames
Codec ID : V_MPEG4/ISO/AVC
Duration : 51mn 49s
Bit rate mode : Variable
Bit rate : 2 852 Kbps
Maximum bit rate : 3 000 Kbps
Width : 1 280 pixels
Height : 640 pixels
Display aspect ratio : 2.000
Frame rate mode : Constant
Frame rate : 25.000 fps
Standard : PAL
Color space : YUV
Chroma subsampling : 4:2:0
Bit depth : 8 bits
Scan type : Progressive
Bits/(Pixel*Frame) : 0.139
Stream size : 1.03 GiB (88%)
Writing library : x264 core 112
Default : Yes
Forced : No
Color range : Limited
Color primaries : BT.709
Transfer characteristics : BT.709
Matrix coefficients : BT.709

Audio
ID : 1
Format : AC-3
Format/Info : Audio Coding 3
Mode extension : CM (complete main)
Format settings, Endianness : Big
Codec ID : A_AC3
Duration : 51mn 49s
Bit rate mode : Constant
Bit rate : 384 Kbps
Channel(s) : 6 channels
Channel positions : Front: L C R, Side: L R, LFE
Sampling rate : 48.0 KHz
Frame rate : 31.250 fps (1536 spf)
Compression mode : Lossy
Stream size : 142 MiB (12%)
Default : Yes
Forced : No


Related torrents

Torrent NameAddedSizeSeedLeechHealth
1 Year+ - in TV shows404.24 MB34
1 Year+ - in Other2.15 MB50
1 Year+ - in TV shows1.14 GB11
1 Year+ - in TV shows435.52 MB00
1 Year+ - in Other118.77 MB10

Note :

Feel free to post any comments about this torrent, including links to Subtitle, samples, screenshots, or any other relevant information. Watch Secret City - S01E06 - The Light On The Hill mkv Free Movies Online, Like 123Movies, Fmovies, Putlockers, Popcorntime, Netflix or Direct Download Secret City - S01E06 - The Light On The Hill mkv via Magnet Link.

Comments (0 Comments)




Please login or create a FREE account to post comments

Latest Searches


X
Attention! Use a VPN when Accessing Free Content !
Your IP address is - Country:
Your Internet provider Tracks your Activity! Hide your IP ADDRESS with a VPN!
Bonus: Get Lag-Free Streams & No popups with any VPN Purchased !

Download Here